[Login] or [Signup]
Login
Username:
Password:
[Signup]
[Recover Account]


Poll


You must be logged in to view polls



Torrent Details For " Neel Akasher Chadni (Bengali Movie ) - HDTV Rip[x264 - AAC3(5.1Ch)] - 850 MB"

Neel Akasher Chadni (Bengali Movie ) - HDTV Rip[x264 - AAC3(5.1Ch)] - 850 MB

Download this torrent | Magnet Download
Health:
Seeds: 10
Leechers: 16
Completed: 37 
Last Checked: 09-11-2018 05:30:23
External Torrent
Update Stats
Download Magnet


Poster


iMDB
Title: Neel Akasher Chadni
Year: 2009
Votes: 41
Rating: 6.1/10
Language: Bengali
Director: Sujit Guha

Produced By: Pijush Saha,
Music: Jeet Gannguli
Cast:
Jeet as
Koyel Mallick as
Anuradha Roy as
Jishu Sengupta as


Watch-Free-HD     Download

Details
Name: Neel Akasher Chadni (Bengali Movie ) - HDTV Rip[x264 - AAC3(5.1Ch)] - 850 MB
Description:
   Neel Akasher Chadni (Bengali Movie ) -
HDTV Rip[x264 - AAC3(5.1Ch)] - 850 MB    
 





General
Format                                   : Matroska
Format version                           : Version 4
File size                                : 850 MiB
Duration                                 : 2 h 38 min

Video
ID                                       : 1
Format                                   : AVC
Format/Info                              : Advanced Video Codec
Format profile                           : [email protected]
Format settings                          : CABAC / 4 Ref Frames
Format settings, CABAC                   : Yes
Format settings, RefFrames               : 4 frames
Codec ID                                 : V_MPEG4/ISO/AVC
Duration                                 : 2 h 38 min
Bit rate                                 : 618 kb/s
Width                                    : 640 pixels
Height                                   : 272 pixels
Display aspect ratio                     : 2.35:1
Frame rate mode                          : Constant
Frame rate                               : 25.000 FPS
Color space                              : YUV
Chroma subsampling                       : 4:2:0
Bit depth                                : 8 bits
Scan type                                : Progressive
Bits/(Pixel*Frame)                       : 0.142
Stream size                              : 702 MiB (83%)

Audio
ID                                       : 2
Format                                   : AAC LC SBR
Commercial name                          : HE-AAC
Format settings                          : Explicit
Codec ID                                 : A_AAC-2
Duration                                 : 2 h 38 min
Bit rate                                 : 128 kb/s
Channel(s)                               : 6 channels
Channel layout                           : C L R Ls Rs LFE
Sampling rate                            : 48.0 kHz
Stream size                              : 145 MiB (17%)



 Thumbnail  


Category:Movies > Bengali
Lang:Bengali  Bengali
Total Size:849.81 MB
Info Hash:1829a32dc31d73ff836bf1d5777fd48998e614bc
Added By:CyberTron
Date Added:08-11-2018 16:40:10
Views:71
Hits:6

Download Torrent

Ratings:Not Yet Rated (Log in to rate it)

  


Tracker:
udp://tracker.trackerfix.com:80/announce


File List: 


Comments

No comments still posted

Powered by 10 Hamsters v2-svn -|- Page Generated In 0.497096 secs.
-|- RSS FEED
Theme By: Nikkbu