[Login] or [Signup]
Login
Username:
Password:
[Signup]
[Recover Account]


Poll


You must be logged in to view polls



Torrent Details For "Laila Majnu 2018 Hindi 720p HDRip x264 AAC { TaRa }.mkv"

Laila Majnu 2018 Hindi 720p HDRip x264 AAC { TaRa }.mkv

Download this torrent | Magnet Download
Health:
Seeds: 107
Leechers: 36
Completed: 3,035 
Last Checked: 14-11-2018 16:02:23
External Torrent
Update Stats
Download Magnet


Poster


iMDB
Title: Laila Majnu
Year: 2018
Runtime: 140 minutes
Votes: 360
Rating: 8.4/10
Language: Hindi
All Genres: Drama, Romance
Director: Sajid Ali
Writing By: Imtiaz Ali,Sajid Ali,
Produced By: Preety Ali,Khawar Jamsheed,Ekta Kapoor,Ruchikaa Kapoor,Shobha Kapoor,Sunil Lulla,Nachiket Pantvaidya,Kshitij Prasad,
Music: Hitesh Sonik
Cast:
Farhana Bhat as Jasmeet
Tripti Dimri as
Sumit Kaul as Ibban
Abrar Qazi ">Abrar Qazi as Zaid
Mir Sarwar as
Avinash Tiwary as Majnu
Trailers:
Laila Majnu trailer


Watch-Free-HD     Download

Details
Name:Laila Majnu 2018 Hindi 720p HDRip x264 AAC { TaRa }.mkv
Description:

Laila Majnu 2018 Hindi 720p HDRip x264 AAC { TaRa }.mkv
 

===================================================================
General
Complete name               : Laila Majnu 2018 Hindi 720p HDRip x264 AAC { TaRa }.mkv
Format                      : Matroska
Format version              : Version 4
File size                   : 1.29 GiB
Duration                    : 2 h 12 min
Overall bit rate            : 1 393 kb/s
===================================================================
Video
ID                          : 1
Format                      : AVC
Format/Info                 : Advanced Video Codec
Format profile              : [email protected]
Format settings             : CABAC / 4 Ref Frames
Format settings, CABAC      : Yes
Format settings, ReFrames   : 4 frames
Codec ID                    : V_MPEG4/ISO/AVC
Duration                    : 2 h 12 min
Bit rate                    : 1 266 kb/s
Width                       : 1 280 pixels
Height                      : 544 pixels
Display aspect ratio        : 2.35:1
Frame rate mode             : Constant
Frame rate                  : 25.000 FPS
Color space                 : YUV
Chroma subsampling          : 4:2:0
Bit depth                   : 8 bits
Scan type                   : Progressive
Bits/(Pixel*Frame)          : 0.073
Stream size                 : 1.17 GiB (91%)
Title                       : .....::::: TaRa :::::.....
Language                    : Hindi
Default                     : Yes
Forced                      : No
===================================================================
Audi=
ID                          : 2
Format                      : AAC LC
Format/Info                 : Advanced Audio Codec Low Complexity
Codec ID                    : A_AAC-2
Duration                    : 2 h 12 min
Bit rate                    : 125 kb/s
Channel(s)                  : 2 channels
Channel layout              : L R
Sampling rate               : 48.0 kHz
Frame rate                  : 46.875 FPS (1024 SPF)
Compression mode            : Lossy
Delay relative to video     : -21 ms
Stream size                 : 118 MiB (9%)
Title                       : .....::::: TaRa :::::.....
Language                    : Hindi
Default                     : Yes
Forced                      : No
===================================================================


 
 
 
 
 
 
 
 
 
 
 
 
 
 
 
 
 
 
 
 
 












 



Category:Movies > Bollywood
Lang:Hindi
Total Size:1.29 GB
Info Hash:e2053a49bbd829d695b79b9b8ffab3fac54de01d
Added By:SkTaRa
Date Added:09-11-2018 04:20:55
Views:2,789
Hits:423

Download Torrent

Ratings:Not Yet Rated (Log in to rate it)

  


Tracker:
udp://tracker.coppersurfer.tk:6969/announce


File List: 


Comments

No comments still posted

Powered by 10 Hamsters v2-svn -|- Page Generated In 4.384741 secs.
-|- RSS FEED
Theme By: Nikkbu